<?xml version="1.0" standalone="no"?>
<!DOCTYPE svg PUBLIC "-//W3C//DTD SVG 1.1//EN" "http://www.w3.org/Graphics/SVG/1.1/DTD/svg11.dtd" >
<svg>
<metadata>
Created by FontForge 20110222 at Mon Mar  7 08:39:07 2011
 By www-data
Copyright 1993 Glyph Systems, Limited Partnership. Typeface Portions [C] The Monotype Corporation plc. /Type Solutions Inc. 1990-1995. All Rights Reserved.
</metadata>
<defs>
<font id="Andalus" horiz-adv-x="552" >
  <font-face 
    font-family="Andalus"
    font-weight="400"
    font-stretch="normal"
    units-per-em="1000"
    panose-1="2 0 5 3 0 0 0 0 0 0"
    ascent="800"
    descent="-200"
    x-height="510"
    cap-height="688"
    bbox="-73 -367 972 894"
    underline-thickness="49"
    underline-position="-391"
    unicode-range="U+0020-2122"
  />
    <missing-glyph />
    <glyph glyph-name="space" unicode=" " horiz-adv-x="244" 
 />
    <glyph glyph-name="exclam" unicode="!" horiz-adv-x="317" 
d="M195 233l-51 -51v234c0 21 -19 64 -56 130c25 0 61 29 107 86v-399zM214 107c0 -23 -21 -44 -44 -44c-24 0 -44 20 -44 44s20 44 44 44s44 -20 44 -44z" />
    <glyph glyph-name="quotedbl" unicode="&#x22;" horiz-adv-x="270" 
d="M236 591c0 -19 -4 -48 -10 -88c-7 -39 -11 -77 -11 -113h-37c0 36 -4 74 -10 113s-9 69 -9 88c0 24 13 36 38 36c21 0 39 -16 39 -36zM110 591c0 -19 -3 -48 -9 -88c-7 -39 -10 -77 -10 -113h-38c0 36 -3 74 -10 113c-6 39 -9 69 -9 88c0 24 13 36 37 36
c22 0 39 -16 39 -36z" />
    <glyph glyph-name="numbersign" unicode="#" horiz-adv-x="667" 
d="M622 233h-160l-43 -200h-50l42 200h-216l-42 -200h-50l41 200h-100v51h111l40 190h-151v50h161l43 201h51l-43 -201h215l42 201h50l-42 -201h101v-50h-110l-40 -190h150v-51zM461 474h-215l-40 -189h215z" />
    <glyph glyph-name="dollar" unicode="$" horiz-adv-x="458" 
d="M430 247c0 -78 -62 -150 -163 -191v-82h-35v76c-62 -2 -97 -1 -175 33v171h32c14 -109 62 -166 143 -171v263c-123 80 -162 119 -162 184c0 73 71 145 162 167v80h35v-76c39 0 65 -1 131 -24v-152h-33c-10 81 -43 128 -98 142v-235c143 -102 163 -117 163 -185zM232 456
v212c-53 -4 -88 -40 -88 -89c0 -44 29 -85 88 -123zM354 194c0 49 -29 91 -87 126v-234c58 15 87 51 87 108z" />
    <glyph glyph-name="percent" unicode="%" horiz-adv-x="719" 
d="M678 241c0 -105 -72 -188 -162 -188c-78 0 -133 61 -133 146c0 106 71 191 163 191c78 0 132 -60 132 -149zM597 715l-433 -682h-42l433 682h42zM336 546c0 -101 -70 -187 -165 -187c-77 0 -130 60 -130 147c0 103 74 189 163 189c78 0 132 -60 132 -149zM622 192
c0 89 -45 166 -106 166c-46 0 -75 -39 -75 -102c0 -93 46 -169 103 -169c52 0 78 35 78 105zM278 501c0 89 -46 162 -104 162c-52 0 -75 -46 -75 -105c0 -94 46 -167 106 -167c49 0 73 36 73 110z" />
    <glyph glyph-name="ampersand" unicode="&#x26;" horiz-adv-x="635" 
d="M644 201c-54 -102 -97 -152 -131 -152c-38 0 -94 45 -167 136c-81 -103 -126 -136 -182 -136c-70 0 -129 63 -129 139c0 65 55 139 163 222c-35 67 -53 120 -53 157c0 78 87 135 199 135c67 0 111 -33 111 -83c0 -52 -22 -67 -173 -168c46 -75 81 -130 104 -164
c30 46 50 101 58 164h175v-25c-81 0 -153 -54 -217 -161c66 -88 114 -132 143 -132c21 0 46 26 78 77zM374 617c0 34 -27 58 -66 58c-48 0 -79 -34 -79 -83c0 -27 14 -68 42 -121c79 72 103 104 103 146zM333 202c-55 73 -96 136 -125 189c-53 -56 -80 -110 -80 -162
c0 -61 34 -107 86 -107c36 0 76 27 119 80z" />
    <glyph glyph-name="quotesingle" unicode="'" horiz-adv-x="156" 
d="M130 655c0 -14 -2 -32 -5 -55l-27 -157h-19l-24 159c-4 26 -6 44 -6 53c0 31 14 47 42 47c26 0 39 -16 39 -47z" />
    <glyph glyph-name="parenleft" unicode="(" horiz-adv-x="319" 
d="M275 -259l-15 -22c-142 179 -190 303 -190 495c0 184 54 319 189 489l16 -20c-75 -173 -113 -329 -113 -466c0 -193 25 -277 113 -476z" />
    <glyph glyph-name="parenright" unicode=")" horiz-adv-x="319" 
d="M254 208c0 -182 -50 -312 -188 -489l-17 20c75 178 112 333 112 466c0 217 -37 310 -111 476l14 22c140 -179 190 -303 190 -495z" />
    <glyph glyph-name="asterisk" unicode="*" horiz-adv-x="332" 
d="M313 455l-116 25c-1 -3 -3 -6 -5 -9l103 -60l-49 -50l-64 100c-4 -2 -8 -3 -10 -3l31 -116h-71l26 116c-3 1 -6 1 -8 3l-64 -100l-49 50l103 60c-2 4 -4 7 -4 9l-116 -25v70l115 -31c1 4 2 7 3 10l-99 64l49 50l60 -103c4 2 7 3 10 4l-26 116h71l-31 -115
c4 -1 8 -3 12 -5l60 103l49 -50l-99 -64c2 -4 3 -7 3 -10l116 31v-70zM183 488c0 12 -6 17 -17 17s-17 -5 -17 -17c0 -11 6 -17 17 -17s17 6 17 17z" />
    <glyph glyph-name="plus" unicode="+" horiz-adv-x="462" 
d="M408 221h-157v-158h-41v158h-159v40h159v160h41v-160h157v-40z" />
    <glyph glyph-name="comma" unicode="," horiz-adv-x="203" 
d="M147 100c0 -46 -33 -97 -85 -130c0 36 -5 57 -14 62c15 5 35 20 35 37c-16 6 -25 19 -25 39c0 29 24 43 43 43c26 0 46 -22 46 -51z" />
    <glyph glyph-name="hyphenminus" unicode="-" horiz-adv-x="462" 
d="M408 221h-357v40h357v-40z" />
    <glyph glyph-name="period" unicode="." horiz-adv-x="203" 
d="M145 107c0 -23 -20 -44 -43 -44c-25 0 -45 20 -45 44s20 44 44 44s44 -20 44 -44z" />
    <glyph glyph-name="slash" unicode="/" horiz-adv-x="278" 
d="M250 696l-186 -764h-40l184 764h42z" />
    <glyph glyph-name="zero" unicode="0" 
d="M515 427c0 -176 -111 -378 -271 -378c-118 0 -206 109 -206 274c0 200 122 382 262 382c128 0 215 -116 215 -278zM443 352c0 122 -32 209 -97 261c-32 26 -61 38 -89 38c-94 0 -152 -95 -152 -253s84 -292 190 -292c92 0 148 93 148 246z" />
    <glyph glyph-name="one" unicode="1" 
d="M428 63h-258v23c70 0 89 14 89 62v435c0 28 -13 42 -37 42c-12 0 -39 -7 -81 -22v24l237 83v-20c-27 -7 -40 -26 -40 -56v-477c0 -55 19 -71 90 -71v-23z" />
    <glyph glyph-name="two" unicode="2" 
d="M505 213l-35 -173h-23c0 18 -4 23 -18 23h-381v23l142 172c142 172 195 260 195 328c0 52 -37 91 -87 91c-80 0 -148 -87 -157 -197h-34v149c78 48 151 73 220 73c92 0 153 -49 153 -123c0 -72 -38 -121 -152 -235l-208 -205h276c48 0 77 24 85 74h24z" />
    <glyph glyph-name="three" unicode="3" 
d="M498 292c0 -125 -132 -243 -273 -243c-43 0 -91 10 -145 31v163h33c11 -96 74 -160 158 -160c82 0 137 62 137 152c0 100 -57 157 -158 157h-81v23c100 10 196 96 196 185c0 45 -32 76 -78 76c-94 0 -141 -110 -143 -195h-34v148c77 48 147 73 211 73
c80 0 134 -41 134 -103c0 -68 -69 -129 -205 -183h50c132 0 198 -41 198 -124z" />
    <glyph glyph-name="four" unicode="4" 
d="M492 241h-100v-93c0 -47 21 -62 76 -62v-23h-245v23c67 0 89 14 89 62v93h-281v23l192 242c62 79 110 146 145 201h24v-416h100v-50zM312 291v258c-45 -42 -85 -87 -122 -133l-99 -125h221z" />
    <glyph glyph-name="five" unicode="5" 
d="M500 311c0 -137 -127 -262 -267 -262c-47 0 -92 11 -136 32v162h34c14 -97 69 -158 145 -158c82 0 132 65 132 169c0 99 -49 186 -142 186c-52 0 -94 -26 -126 -78h-29l15 326h291c20 0 29 8 30 24h23v-171h-23c0 53 -20 73 -71 73h-222l-9 -195c42 34 97 51 163 51
c116 0 192 -63 192 -159z" />
    <glyph glyph-name="six" unicode="6" 
d="M510 252c0 -110 -105 -203 -229 -203c-134 0 -220 112 -220 278c0 210 127 375 292 375c36 0 75 -8 114 -24v-168h-36c-1 101 -45 165 -110 165c-96 0 -174 -141 -174 -302c0 -14 2 -35 5 -62c54 63 115 95 183 95c108 0 175 -59 175 -154zM417 224
c0 78 -42 144 -116 144c-73 0 -122 -58 -122 -145s49 -148 118 -148c71 0 120 61 120 149z" />
    <glyph glyph-name="seven" unicode="7" 
d="M512 657c-156 -199 -221 -369 -227 -594h-89c11 213 53 299 254 551h-259c-56 0 -74 -18 -75 -75h-23v171h23c0 -15 5 -22 27 -22h369v-31z" />
    <glyph glyph-name="eight" unicode="8" 
d="M521 239c0 -100 -129 -190 -273 -190c-119 0 -203 54 -203 142c0 68 41 105 187 194c-113 60 -144 83 -144 153c0 89 109 164 229 164c93 0 159 -43 159 -105c0 -50 -38 -93 -151 -173c160 -85 196 -111 196 -185zM396 581c0 57 -46 93 -116 93s-119 -41 -119 -98
c0 -53 37 -88 143 -139c61 53 92 101 92 144zM437 210c0 64 -23 76 -181 163c-89 -59 -122 -102 -122 -163c0 -79 62 -132 150 -132c86 0 153 57 153 132z" />
    <glyph glyph-name="nine" unicode="9" 
d="M502 422c0 -206 -127 -373 -288 -373c-40 0 -79 8 -115 25v166h35c1 -97 44 -164 107 -164c102 0 174 130 174 310c0 11 -1 28 -2 52c-60 -61 -123 -92 -189 -92c-101 0 -169 62 -169 155c0 107 106 201 226 201c142 0 221 -119 221 -280zM384 529c0 84 -49 149 -115 149
c-75 0 -123 -61 -123 -152c0 -85 50 -144 122 -144c68 0 116 61 116 147z" />
    <glyph glyph-name="colon" unicode=":" horiz-adv-x="203" 
d="M145 239c0 -23 -20 -44 -43 -44c-25 0 -45 20 -45 44s20 44 44 44s44 -20 44 -44zM145 107c0 -23 -20 -44 -43 -44c-25 0 -45 20 -45 44s20 44 44 44s44 -20 44 -44z" />
    <glyph glyph-name="semicolon" unicode=";" horiz-adv-x="240" 
d="M180 463c0 -33 -26 -59 -59 -59s-59 26 -59 59s26 59 58 59c34 0 60 -25 60 -59zM224 80c0 -87 -55 -165 -163 -235v28c72 52 108 107 108 166c0 14 -5 30 -15 47c-11 -15 -26 -23 -45 -23c-29 0 -48 19 -48 48c0 35 31 60 74 60c54 0 89 -36 89 -91z" />
    <glyph glyph-name="less" unicode="&#x3c;" horiz-adv-x="667" 
d="M597 132l-528 222v48l528 222v-58l-457 -188l457 -189v-57z" />
    <glyph glyph-name="equal" unicode="=" horiz-adv-x="462" 
d="M408 263h-357v42h357v-42zM408 177h-357v42h357v-42z" />
    <glyph glyph-name="greater" unicode="&#x3e;" horiz-adv-x="667" 
d="M597 354l-528 -222v57l458 188l-458 189v58l528 -223v-47z" />
    <glyph glyph-name="question" unicode="?" horiz-adv-x="448" 
d="M433 592c0 -50 -31 -103 -93 -158c-94 -84 -120 -134 -122 -221h-48c1 98 19 145 85 235c47 63 70 110 70 142c0 51 -34 83 -88 83c-86 0 -153 -83 -158 -193h-33v147c91 50 172 75 244 75c120 0 143 -67 143 -110zM252 108c0 -33 -26 -59 -59 -59s-58 26 -58 59
s25 59 57 59c34 0 60 -26 60 -59z" />
    <glyph glyph-name="at" unicode="@" horiz-adv-x="917" 
d="M897 143c-62 -180 -229 -298 -421 -298c-252 0 -426 180 -426 439c0 269 198 472 462 472c208 0 345 -131 345 -334c0 -193 -119 -351 -263 -351c-51 0 -77 23 -77 69c0 13 4 38 12 75c-84 -102 -132 -138 -186 -138c-58 0 -95 44 -95 112c0 151 156 342 272 342
c42 0 70 -23 83 -69l15 56l64 9l-68 -229c-24 -81 -36 -132 -36 -154c0 -27 15 -40 45 -40c107 0 209 161 209 316c0 192 -133 311 -321 311c-240 0 -422 -205 -422 -474c0 -222 163 -386 388 -386c177 0 334 108 394 272h26zM584 433c0 50 -22 75 -66 75
c-91 0 -202 -179 -202 -310c0 -46 21 -69 62 -69c88 0 206 174 206 304z" />
    <glyph glyph-name="A" unicode="A" horiz-adv-x="604" 
d="M603 63h-175v23h11c6 0 6 3 6 27l-58 170h-214c-22 -63 -33 -110 -33 -141c0 -42 21 -56 83 -56v-23h-219v23c37 2 70 41 100 117l200 510h29l173 -499c30 -88 59 -126 97 -128v-23zM376 313l-89 260l-102 -260h191z" />
    <glyph glyph-name="B" unicode="B" horiz-adv-x="542" 
d="M507 283c0 -122 -119 -220 -250 -220h-229v23c57 1 75 19 75 78v423c0 58 -18 76 -75 77v24h296c108 0 155 -33 155 -111c0 -67 -47 -128 -139 -182c121 -1 167 -33 167 -112zM391 512c0 89 -50 153 -121 153c-32 0 -58 -8 -77 -24v-227h95c69 0 103 33 103 98zM414 223
c0 103 -67 169 -171 169h-50v-258c33 -26 68 -39 105 -39c70 0 116 50 116 128z" />
    <glyph glyph-name="C" unicode="C" horiz-adv-x="615" 
d="M589 182c-103 -89 -197 -133 -282 -133c-157 0 -270 126 -270 298c0 203 152 355 355 355c64 0 125 -10 182 -31v-147h-34c-9 90 -85 147 -192 147c-136 0 -227 -108 -227 -268c0 -166 100 -283 246 -283c72 0 146 30 222 92v-30z" />
    <glyph glyph-name="D" unicode="D" horiz-adv-x="708" 
d="M672 441c0 -223 -158 -378 -385 -378h-256v23c57 1 74 19 74 78v423c0 58 -17 76 -74 77v24h384c172 0 257 -83 257 -247zM581 377c0 192 -81 289 -244 289c-57 0 -104 -13 -141 -38v-488c52 -30 103 -45 152 -45c140 0 233 112 233 282z" />
    <glyph glyph-name="E" unicode="E" horiz-adv-x="479" 
d="M470 243l-40 -201h-24c-1 14 -7 21 -19 21h-356v23c58 1 74 18 74 78v422c0 59 -17 77 -74 78v24h349c21 0 32 8 33 24h23v-187h-36c-2 104 -57 139 -204 139c-4 -35 -6 -67 -6 -95c0 -109 46 -163 137 -163h48v-34l-179 -5v-281h52c109 0 172 53 188 157h34z" />
    <glyph glyph-name="F" unicode="F" horiz-adv-x="427" 
d="M435 523h-36c0 109 -53 141 -205 141c-3 -35 -5 -67 -5 -96c0 -148 46 -174 185 -174v-34l-180 -4v-192c0 -50 25 -76 75 -78v-23h-239v23c57 1 74 19 74 78v423c0 58 -17 76 -74 77v24h369c8 0 12 7 14 21h22v-186z" />
    <glyph glyph-name="G" unicode="G" horiz-adv-x="667" 
d="M640 309c-29 -1 -49 -28 -49 -67v-201h-25c-1 57 -23 85 -65 85c-18 0 -41 -9 -67 -27c-46 -32 -98 -50 -144 -50c-140 0 -250 128 -250 291c0 201 148 362 358 362c52 0 111 -10 177 -30v-148h-35c-11 89 -84 145 -187 145c-138 0 -230 -105 -230 -258
c0 -171 99 -299 233 -299c86 0 150 53 150 123c0 59 -36 74 -110 74v23h244v-23z" />
    <glyph glyph-name="H" unicode="H" horiz-adv-x="688" 
d="M657 63h-239v23c57 1 74 19 74 78v225h-298v-225c0 -50 25 -76 75 -78v-23h-239v23c57 1 74 19 74 78v423c0 58 -17 76 -74 77v24h239v-24c-58 -1 -75 -18 -75 -77v-168h298v168c0 58 -17 76 -74 77v24h239v-24c-58 -1 -74 -18 -74 -77v-423c0 -60 16 -77 74 -78v-23z
" />
    <glyph glyph-name="I" unicode="I" horiz-adv-x="302" 
d="M274 63h-238v23c56 1 74 19 74 78v423c0 58 -17 76 -74 77v24h238v-24c-58 -1 -74 -19 -74 -77v-423c0 -50 25 -76 74 -78v-23z" />
    <glyph glyph-name="J" unicode="J" horiz-adv-x="292" 
d="M271 664c-57 -1 -74 -19 -74 -78v-409c0 -172 -115 -335 -219 -335c-15 0 -32 3 -51 9v155h34c5 -63 33 -105 72 -105c49 0 74 54 74 162v523c0 60 -16 77 -74 78v24h238v-24z" />
    <glyph glyph-name="K" unicode="K" horiz-adv-x="583" 
d="M597 63h-158l-246 330v-229c0 -50 25 -76 75 -78v-23h-239v23c57 1 74 19 74 78v422c0 60 -16 77 -74 78v24h239v-24c-58 -1 -75 -18 -75 -78v-197l121 118c53 53 80 94 80 124c0 21 -17 32 -50 33v24h224v-24c-42 -5 -87 -31 -135 -78l-159 -152l172 -229
c59 -79 109 -119 151 -119v-23z" />
    <glyph glyph-name="L" unicode="L" horiz-adv-x="469" 
d="M471 242l-42 -202h-23c0 15 -7 23 -21 23h-353v23c57 1 74 19 74 78v422c0 59 -17 77 -74 78v24h239v-24c-58 -1 -74 -18 -74 -78v-500h63c99 0 157 52 176 156h35z" />
    <glyph glyph-name="M" unicode="M" horiz-adv-x="885" 
d="M879 63h-240v23c60 2 66 22 66 85l-38 388c-56 -99 -96 -176 -120 -232l-122 -287h-22l-229 568l-16 -175c-8 -79 -12 -142 -12 -188c0 -103 26 -156 78 -159v-23h-221v23c63 15 105 137 126 369l13 129c0 66 -7 79 -64 80v24h159l210 -517l120 284c45 107 75 184 89 233
h175v-24c-64 -2 -76 -16 -76 -74l37 -389c8 -92 23 -113 87 -115v-23z" />
    <glyph glyph-name="N" unicode="N" horiz-adv-x="677" 
d="M672 664c-60 -5 -89 -103 -89 -293v-330h-23l-422 569v-182c0 -231 27 -334 91 -342v-23h-212v23c59 10 88 122 88 337v168c0 54 -18 72 -73 73v24h160l355 -478v145c0 200 -29 303 -89 309v24h214v-24z" />
    <glyph glyph-name="O" unicode="O" horiz-adv-x="729" 
d="M692 405c0 -194 -163 -356 -360 -356c-168 0 -295 127 -295 295c0 193 162 358 353 358c174 0 302 -125 302 -297zM610 319c0 187 -126 337 -281 337c-125 0 -209 -93 -209 -230c0 -188 123 -334 284 -334c119 0 206 96 206 227z" />
    <glyph glyph-name="P" unicode="P" horiz-adv-x="479" 
d="M494 576c0 -108 -117 -222 -226 -222c-23 0 -47 6 -75 18v-208c0 -50 25 -76 75 -78v-23h-239v23c58 1 74 18 74 78v423c0 58 -17 76 -74 77v24h309c104 0 156 -38 156 -112zM397 514c0 92 -45 150 -115 150c-31 0 -60 -11 -89 -32v-194c42 -32 79 -47 112 -47
c61 0 92 41 92 123z" />
    <glyph glyph-name="Q" unicode="Q" horiz-adv-x="729" 
d="M724 -33c-71 -80 -104 -106 -142 -106c-28 0 -75 28 -143 84c-110 91 -151 118 -181 118c-26 0 -59 -21 -102 -64v30c16 21 32 39 49 54c-103 43 -165 143 -165 264c0 194 162 355 354 355c176 0 299 -126 299 -295c0 -168 -121 -314 -288 -348c24 -6 60 -29 108 -68
c48 -40 84 -60 107 -60s57 23 104 68v-32zM613 323c0 182 -132 336 -283 336c-122 0 -209 -96 -209 -232c0 -183 127 -332 284 -332c119 0 208 97 208 228z" />
    <glyph glyph-name="R" unicode="R" horiz-adv-x="542" 
d="M565 63h-117c-24 0 -45 14 -63 42l-193 301v-242c0 -50 25 -76 75 -78v-23h-240v23c57 1 75 19 75 78v423c0 58 -18 76 -75 77v24h311c92 0 138 -36 138 -108c0 -80 -52 -149 -155 -208l109 -169c49 -75 94 -114 135 -117v-23zM376 511c0 89 -44 154 -109 154
c-27 0 -52 -9 -75 -25v-203c38 -28 71 -42 98 -42c57 0 86 39 86 116z" />
    <glyph glyph-name="S" unicode="S" horiz-adv-x="448" 
d="M421 245c0 -114 -122 -196 -231 -196c-42 0 -90 10 -143 31v175h35c0 -98 62 -173 145 -173c71 0 117 44 117 112c0 63 -34 94 -144 167c-93 62 -138 96 -138 165c0 96 98 176 215 176c29 0 68 -9 116 -25v-154h-36c-5 86 -55 145 -125 145c-56 0 -95 -37 -95 -90
c0 -55 37 -93 154 -171c99 -66 130 -98 130 -162z" />
    <glyph glyph-name="T" unicode="T" horiz-adv-x="521" 
d="M518 524h-35c-1 111 -60 140 -174 140v-500c0 -50 24 -76 74 -78v-23h-239v23c57 1 74 19 74 78v500c-125 0 -170 -34 -173 -140h-34v185h21c4 -14 11 -21 19 -21h427c11 0 17 7 17 21h23v-185z" />
    <glyph glyph-name="U" unicode="U" horiz-adv-x="677" 
d="M667 664c-61 -9 -91 -111 -91 -305c0 -143 -3 -179 -34 -225c-38 -57 -105 -85 -203 -85c-91 0 -242 27 -242 191v346c0 59 -17 77 -74 78v24h239v-24c-58 -1 -74 -19 -74 -78v-342c0 -101 66 -164 172 -164c131 0 182 61 182 219c0 258 -25 359 -90 365v24h215v-24z" />
    <glyph glyph-name="V" unicode="V" horiz-adv-x="615" 
d="M615 664c-36 0 -69 -40 -101 -121l-200 -501h-28l-176 510c-26 74 -56 111 -91 112v24h172v-24c-12 0 -19 -5 -19 -14c0 -5 2 -13 6 -24l155 -446l99 252c27 69 41 125 41 167c0 43 -26 64 -77 65v24h219v-24z" />
    <glyph glyph-name="W" unicode="W" horiz-adv-x="969" 
d="M968 664c-35 -1 -71 -46 -107 -136l-195 -488h-29l-142 413c-32 -57 -57 -111 -77 -160l-100 -253h-28l-165 485c-32 96 -60 136 -98 139v24h171v-24c-12 0 -18 -6 -18 -16l156 -468l82 205c24 60 36 117 36 171c0 69 -28 105 -82 108v24h172v-24c-14 0 -21 -5 -21 -16
l159 -468l100 253c30 77 46 132 46 165c0 56 -30 65 -79 66v24h219v-24z" />
    <glyph glyph-name="X" unicode="X" horiz-adv-x="604" 
d="M598 63h-195v23c13 1 20 6 20 16c0 2 -1 6 -4 10l-140 235c-74 -97 -112 -168 -112 -211c0 -32 22 -49 66 -50v-23h-232v23c43 4 91 43 144 117l120 168l-109 181c-43 71 -84 109 -124 112v24h191v-24c-13 -1 -20 -5 -20 -12c0 -3 1 -5 2 -7l117 -196
c58 81 86 136 86 167s-25 47 -74 48v24h234v-24c-45 -6 -93 -44 -143 -112l-91 -125l156 -256c32 -52 64 -77 108 -85v-23z" />
    <glyph glyph-name="Y" unicode="Y" horiz-adv-x="583" 
d="M604 664c-36 -1 -75 -37 -117 -109l-148 -252v-139c0 -50 25 -76 74 -78v-23h-239v23c57 1 75 19 75 78v139l-123 245c-41 83 -72 116 -109 116v24h177v-24c-12 0 -18 -5 -18 -13c0 -3 0 -6 2 -9l153 -305c79 124 119 214 119 271c0 41 -22 55 -80 56v24h234v-24z" />
    <glyph glyph-name="Z" unicode="Z" horiz-adv-x="594" 
d="M581 243l-40 -201h-23c-1 14 -5 21 -12 21h-468v28l402 573h-145c-136 0 -189 -39 -194 -140h-34v185h23c0 -14 7 -21 18 -21h438v-29l-403 -573h147c163 0 233 43 256 157h35z" />
    <glyph glyph-name="bracketleft" unicode="[" horiz-adv-x="313" 
d="M263 -49h-159v803h159v-30h-89v-743h89v-30z" />
    <glyph glyph-name="backslash" unicode="\" horiz-adv-x="510" 
d="M455 45h-54l-346 714h54z" />
    <glyph glyph-name="bracketright" unicode="]" horiz-adv-x="313" 
d="M205 -49h-139v30h69v742h-69v30h139v-802z" />
    <glyph glyph-name="asciicircum" unicode="^" horiz-adv-x="469" 
d="M451 337h-45l-171 287l-171 -287h-46l211 351h14z" />
    <glyph glyph-name="underscore" unicode="_" horiz-adv-x="500" 
d="M506 -125h-512v50h512v-50z" />
    <glyph glyph-name="grave" unicode="`" horiz-adv-x="333" 
d="M200 593l-18 -10l-68 76c-21 24 -32 40 -32 47c0 20 10 30 29 30c12 0 23 -10 33 -30z" />
    <glyph glyph-name="a" unicode="a" horiz-adv-x="469" 
d="M463 122c-50 -49 -90 -73 -121 -73c-28 0 -42 15 -42 47v72c-78 -79 -139 -119 -183 -119c-50 0 -89 43 -89 98c0 71 91 147 272 228v59c0 37 -23 62 -61 62c-65 0 -121 -69 -131 -163h-32v117c75 49 145 74 211 74c62 0 87 -26 87 -90v-305c0 -15 7 -22 20 -22
s36 15 69 45v-30zM305 336c-118 -25 -202 -90 -202 -156c0 -43 28 -67 67 -67c80 0 134 89 135 223z" />
    <glyph glyph-name="b" unicode="b" horiz-adv-x="510" 
d="M492 348c0 -123 -80 -243 -180 -274c-24 -7 -55 -11 -96 -11h-45c-60 0 -80 -6 -92 -31h-33c18 34 28 72 28 116v481c0 29 -11 43 -33 43c-10 0 -24 -4 -41 -11v24l162 67v-20c-9 -5 -14 -14 -14 -26v-334c100 114 143 151 206 151c83 0 138 -69 138 -175zM418 298
c0 101 -42 160 -106 160c-93 0 -170 -118 -170 -249c0 -20 2 -44 6 -70c40 -24 82 -36 127 -36c91 0 143 71 143 195z" />
    <glyph glyph-name="c" unicode="c" horiz-adv-x="448" 
d="M411 183c-71 -90 -140 -134 -207 -134c-104 0 -182 90 -182 210c0 146 110 265 243 265c41 0 85 -10 132 -32v-127h-35c-2 77 -53 130 -126 130c-84 0 -144 -79 -144 -190c0 -112 63 -191 151 -191c48 0 104 34 168 103v-34z" />
    <glyph glyph-name="d" unicode="d" horiz-adv-x="521" 
d="M512 98l-125 -49h-23v158c-94 -120 -139 -158 -200 -158c-82 0 -143 82 -143 190c0 143 121 285 244 285c28 0 61 -9 99 -26v131c0 28 -10 42 -31 42c-12 0 -26 -4 -42 -10v27l168 64v-20c-14 -6 -21 -17 -21 -33v-546c0 -27 12 -41 35 -41c11 0 23 4 39 11v-25zM370 374
c0 22 -2 42 -6 59c-45 38 -89 56 -131 56c-79 0 -137 -91 -137 -211c0 -71 34 -165 111 -165c85 0 163 130 163 261z" />
    <glyph glyph-name="e" unicode="e" horiz-adv-x="438" 
d="M418 186c-73 -92 -143 -137 -212 -137c-101 0 -185 98 -185 213c0 140 103 261 223 261c92 0 156 -70 159 -176h-315v-28c0 -117 67 -202 159 -202c56 0 113 33 171 101v-32zM323 371c-8 75 -50 121 -109 121c-60 0 -111 -50 -121 -121h230z" />
    <glyph glyph-name="f" unicode="f" horiz-adv-x="313" 
d="M339 597h-35c-1 60 -21 90 -60 90c-43 0 -75 -50 -75 -123c0 -76 27 -91 125 -91v-23h-119v-287c0 -55 20 -75 75 -77v-23h-224v23c54 2 75 23 75 77v287h-75v23c46 0 61 3 79 66c33 118 103 191 185 191c12 0 28 -3 49 -9v-124z" />
    <glyph glyph-name="g" unicode="g" horiz-adv-x="500" 
d="M491 16c0 -98 -143 -176 -305 -176c-119 0 -203 45 -203 111c0 82 135 128 240 148c-24 17 -36 35 -36 54c0 23 22 51 66 86c-56 -8 -60 -9 -70 -9c-82 0 -139 48 -139 117c0 93 105 176 214 176c21 0 52 -8 91 -24c66 -27 80 -27 139 -27v-23h-99c7 -17 11 -33 11 -47
c0 -47 -24 -85 -90 -142c-39 -33 -59 -57 -59 -71c0 -18 32 -38 94 -59c108 -35 146 -65 146 -114zM324 375c0 69 -41 119 -97 119c-63 0 -104 -48 -104 -119c0 -70 41 -119 99 -119c59 0 102 50 102 119zM422 -12c0 33 -21 46 -113 78l-56 20c-134 -33 -201 -76 -201 -127
c0 -54 69 -89 165 -89c117 0 205 50 205 118z" />
    <glyph glyph-name="h" unicode="h" 
d="M532 63h-171v23c15 1 22 10 22 27v291c0 43 -17 64 -52 64c-49 0 -90 -37 -123 -110c-28 -59 -41 -117 -41 -173c0 -79 18 -99 79 -99v-23h-222v23c54 2 74 22 74 77v482c0 19 -11 28 -32 28c-12 0 -26 -3 -42 -9v24l168 66v-21c-13 -5 -20 -17 -20 -35v-336
c77 108 145 162 205 162c54 0 80 -35 80 -107v-254c0 -56 19 -75 75 -77v-23z" />
    <glyph glyph-name="i" unicode="i" horiz-adv-x="271" 
d="M188 680c0 -26 -21 -46 -47 -46c-27 0 -47 19 -47 46c0 26 20 47 46 47c27 0 48 -20 48 -47zM252 63h-223v23c54 2 75 23 75 77v267c0 20 -12 30 -36 30c-1 0 -32 -8 -39 -10v25l125 49h24v-361c0 -55 20 -75 74 -77v-23z" />
    <glyph glyph-name="j" unicode="j" horiz-adv-x="260" 
d="M185 680c0 -26 -21 -46 -47 -46c-27 0 -46 19 -46 46c0 26 20 47 45 47c28 0 48 -20 48 -47zM175 100c0 -131 -91 -261 -186 -261c-17 0 -34 4 -52 12v132h35c0 -60 24 -98 62 -98c36 0 67 51 67 113v415c0 30 -12 45 -35 45c-11 0 -24 -4 -40 -11v25l127 51h22v-423z
" />
    <glyph glyph-name="k" unicode="k" horiz-adv-x="500" 
d="M512 63h-150l-189 239v-151c0 -51 32 -64 75 -65v-23h-223v23c54 2 74 22 74 77v457c0 34 -12 52 -35 52c-9 0 -22 -3 -39 -8v24l168 66v-20c-13 -4 -20 -14 -20 -29v-403l112 95c25 22 37 42 37 60c0 20 -20 30 -59 31v22h229v-22c-40 -1 -89 -26 -149 -75l-99 -82
l96 -122c64 -81 122 -122 172 -123v-23z" />
    <glyph glyph-name="l" unicode="l" horiz-adv-x="271" 
d="M253 63h-224v23c54 2 75 23 75 77v464c0 30 -12 45 -37 45c-11 0 -23 -3 -38 -8v24l170 66v-20c-14 -6 -21 -18 -21 -35v-536c0 -55 20 -75 75 -77v-23z" />
    <glyph glyph-name="m" unicode="m" horiz-adv-x="802" 
d="M785 63h-170v23c14 1 21 8 21 23v280c0 53 -18 79 -52 79c-79 0 -149 -132 -149 -274c0 -78 21 -106 80 -108v-23h-169v23c14 1 21 7 21 18v301c0 33 -17 62 -49 62c-48 0 -87 -36 -116 -107c-23 -56 -35 -112 -35 -168c0 -77 21 -106 80 -106v-23h-222v23
c54 2 74 22 74 77v255c0 27 -11 41 -32 41c-11 0 -24 -4 -42 -11v25l125 49h23v-148c85 113 130 149 188 149c62 0 79 -38 79 -144c89 111 133 145 190 145c48 0 80 -36 80 -88v-273c0 -55 20 -75 75 -77v-23z" />
    <glyph glyph-name="n" unicode="n" 
d="M532 63h-170v23c13 1 20 9 20 24v302c0 38 -15 56 -47 56c-51 0 -93 -37 -127 -110c-27 -60 -41 -119 -41 -177c0 -72 19 -93 81 -95v-23h-223v23c55 2 75 22 75 77v249c0 32 -11 48 -33 48c-7 0 -21 -4 -42 -12v25l127 51h21v-160c86 115 143 160 202 160
c55 0 82 -35 82 -106v-255c0 -55 20 -75 75 -77v-23z" />
    <glyph glyph-name="o" unicode="o" horiz-adv-x="490" 
d="M468 311c0 -144 -111 -262 -247 -262c-122 0 -200 83 -200 212c0 143 110 262 244 262c124 0 203 -82 203 -212zM401 257c0 121 -84 228 -178 228c-85 0 -137 -64 -137 -166c0 -121 85 -226 185 -226c76 0 130 68 130 164z" />
    <glyph glyph-name="p" unicode="p" horiz-adv-x="531" 
d="M509 343c0 -137 -101 -294 -248 -294c-29 0 -61 7 -96 23v-115c0 -56 21 -77 76 -78v-24h-223v24c53 1 74 23 74 78v466c0 25 -10 37 -29 37c-7 0 -22 -4 -45 -13v25l125 51h22v-159c85 117 138 160 201 160c84 0 143 -75 143 -181zM436 298c0 103 -42 170 -106 170
c-92 0 -170 -135 -170 -272c0 -15 1 -36 5 -62c46 -37 86 -55 121 -55c87 0 150 94 150 219z" />
    <glyph glyph-name="q" unicode="q" horiz-adv-x="521" 
d="M513 -146h-223v24c53 1 73 22 73 77v244c-99 -113 -151 -150 -215 -150c-74 0 -127 74 -127 179c0 103 67 213 155 255c54 25 100 26 186 25c45 0 72 9 81 30h26c-20 -36 -31 -85 -31 -145v-438c0 -55 21 -76 75 -77v-24zM370 372c0 19 -2 40 -7 64
c-43 25 -85 38 -123 38c-93 0 -141 -96 -141 -205c0 -95 41 -157 103 -157c89 0 168 123 168 260z" />
    <glyph glyph-name="r" unicode="r" horiz-adv-x="396" 
d="M384 365h-34c-1 59 -18 89 -52 89c-78 0 -129 -151 -129 -269c0 -79 23 -99 110 -99v-23h-254v23c55 2 75 23 75 77v253c0 29 -10 43 -32 43c-8 0 -23 -4 -43 -11v24l128 52h22v-159c61 105 118 158 171 158c10 0 23 -2 38 -7v-151z" />
    <glyph glyph-name="s" unicode="s" horiz-adv-x="365" 
d="M339 200c0 -83 -83 -151 -178 -151c-35 0 -75 10 -121 29v135h33c5 -81 50 -133 115 -133c50 0 85 33 85 81s-12 57 -153 147c-47 33 -65 59 -65 94c0 70 68 122 160 122c29 0 61 -7 96 -20v-128h-36c0 70 -42 120 -98 120c-35 0 -58 -24 -58 -58c0 -41 7 -46 173 -153
c31 -26 47 -54 47 -85z" />
    <glyph glyph-name="t" unicode="t" horiz-adv-x="292" 
d="M283 451h-120v-314c0 -20 8 -31 25 -31c19 0 40 16 79 46v-28c-55 -50 -99 -75 -132 -75c-31 0 -46 23 -46 71v331h-75v22c58 0 79 20 79 77v74l100 40v-25c-20 -5 -30 -28 -30 -70c0 -84 22 -96 120 -96v-22z" />
    <glyph glyph-name="u" unicode="u" 
d="M531 101l-135 -54h-23v162c-83 -112 -138 -160 -205 -160c-53 0 -80 38 -80 114v267c0 28 -15 43 -46 43c-6 0 -15 -1 -27 -3v23l168 29v-19c-14 -3 -21 -15 -21 -33v-303c0 -42 16 -63 48 -63c50 0 92 36 126 109c28 60 42 118 42 174c0 58 -17 87 -52 87
c-7 0 -16 -2 -28 -4v23l170 29v-19c-15 -2 -22 -13 -22 -33v-314c0 -31 12 -46 34 -46c13 0 30 5 51 15v-24z" />
    <glyph glyph-name="v" unicode="v" horiz-adv-x="479" 
d="M484 487c-37 -4 -72 -45 -105 -123l-137 -323h-26l-125 351c-22 63 -50 94 -85 95v23h158v-23c-13 0 -19 -6 -19 -18c0 -6 2 -14 5 -23l104 -293l61 153c21 51 31 92 31 123c0 38 -23 57 -71 58v23h209v-23z" />
    <glyph glyph-name="w" unicode="w" horiz-adv-x="750" 
d="M757 487c-43 -7 -72 -43 -113 -141l-128 -305h-29l-105 300l-69 -140l-65 -160h-30l-112 325c-30 87 -54 119 -93 121v23h156v-23c-13 -1 -19 -6 -19 -15c0 -5 1 -10 3 -17l105 -303l55 133c23 56 35 104 35 143c0 38 -23 58 -69 59v23h159v-23c-14 0 -21 -5 -21 -14
c0 -5 1 -11 4 -21l105 -300l60 147c22 53 33 96 33 131c0 38 -24 57 -72 57v23h210v-23z" />
    <glyph glyph-name="x" unicode="x" horiz-adv-x="521" 
d="M513 63h-175v23c11 0 16 4 16 11c0 6 -3 12 -8 18l-99 143c-49 -57 -73 -101 -73 -130c0 -27 19 -41 58 -42v-23h-217v23c41 4 92 42 152 115l65 80l-82 116c-41 59 -80 89 -115 90v23h178v-23c-13 -1 -19 -5 -19 -14c0 -4 1 -8 4 -12l82 -120c43 49 64 86 64 110
c0 23 -16 35 -49 36v23h198v-23c-57 -3 -106 -52 -198 -169l99 -139c43 -60 82 -91 119 -93v-23z" />
    <glyph glyph-name="y" unicode="y" horiz-adv-x="469" 
d="M477 487c-43 -3 -63 -26 -92 -101l-167 -434c-26 -67 -74 -104 -146 -110l-79 94l27 21c25 -32 54 -48 85 -48c54 0 68 20 119 151l-134 332c-29 73 -51 94 -91 95v23h158v-23c-12 -1 -18 -5 -18 -12c0 -3 1 -7 3 -12l121 -301l48 127c21 57 32 105 32 143
c0 36 -24 55 -70 55v23h204v-23z" />
    <glyph glyph-name="z" unicode="z" horiz-adv-x="448" 
d="M417 41h-23c-1 15 -15 22 -40 22h-324v23l285 401h-92c-82 0 -126 -37 -130 -110h-32v155h23c0 -16 7 -22 26 -22h295v-24l-286 -400h104c104 0 158 42 161 125h33v-170z" />
    <glyph glyph-name="braceleft" unicode="{" horiz-adv-x="479" 
d="M406 -156c-103 18 -172 94 -172 188c0 11 3 29 22 141c0 60 -48 108 -116 116v18c78 17 117 53 117 107c0 15 -3 35 -8 60c-9 41 -13 71 -13 91c0 96 68 171 170 188v-20c-64 -9 -108 -55 -108 -111c0 -15 2 -34 6 -56c10 -52 15 -86 15 -103c0 -73 -47 -127 -140 -164
c92 -37 138 -94 138 -171c0 -16 -4 -45 -13 -87c-5 -27 -8 -49 -8 -66c0 -58 37 -96 110 -114v-17z" />
    <glyph glyph-name="bar" unicode="|" horiz-adv-x="510" 
d="M282 -145h-53v899h53v-899z" />
    <glyph glyph-name="braceright" unicode="}" horiz-adv-x="479" 
d="M339 290c-77 -17 -116 -53 -116 -108c0 -17 2 -37 7 -59c9 -43 14 -74 14 -92c0 -96 -68 -170 -171 -187v19c65 10 108 54 108 112c0 15 -2 34 -6 55c-9 54 -14 88 -14 103c0 73 46 128 139 164c-92 38 -138 95 -138 171c0 18 4 47 13 88c6 28 9 50 9 66
c0 58 -37 96 -111 113v18c104 -19 172 -94 172 -189c0 -3 -5 -34 -22 -141c0 -59 46 -104 116 -115v-18z" />
    <glyph glyph-name="asciitilde" unicode="~" horiz-adv-x="667" 
d="M595 448c-2 -84 -50 -140 -122 -140c-23 0 -55 7 -94 22l-88 37c-50 20 -86 30 -107 30c-48 0 -78 -29 -89 -88h-23c3 84 49 140 117 140c31 0 93 -20 186 -59c49 -22 85 -32 107 -32c51 0 85 34 90 90h23z" />
    <glyph glyph-name="nonbreakingspace" unicode="&#xa0;" horiz-adv-x="244" 
 />
    <glyph glyph-name="exclamdown" unicode="&#xa1;" horiz-adv-x="317" 
d="M176 479c0 -24 -20 -44 -44 -44s-44 20 -44 44s20 44 43 44c25 0 45 -20 45 -44zM214 40c-25 0 -61 -29 -108 -86v399l52 51v-234c0 -21 18 -64 56 -130z" />
    <glyph glyph-name="cent" unicode="&#xa2;" horiz-adv-x="448" 
d="M411 271c-55 -69 -108 -111 -159 -126v-82h-35v75c-115 0 -195 88 -195 209c0 125 84 239 195 263v78h35v-74c51 0 99 -10 145 -31v-128h-34c-5 71 -49 122 -111 128v-378c45 0 98 35 159 104v-38zM217 207v376c-73 -12 -125 -90 -125 -187c0 -96 48 -174 125 -189z" />
    <glyph glyph-name="sterling" unicode="&#xa3;" horiz-adv-x="583" 
d="M584 210c-44 -116 -79 -161 -127 -161c-25 0 -67 10 -124 31c-58 21 -99 32 -124 32c-41 0 -76 -25 -105 -74h-29c141 212 149 224 149 270c0 29 -10 57 -31 82h-118v34h52c18 0 27 6 27 17c-15 53 -20 71 -20 86c0 95 104 175 227 175c35 0 85 -10 148 -31v-147h-35
c-9 90 -67 150 -142 150c-71 0 -122 -51 -122 -122c0 -82 70 -128 153 -128h71v-34h-141c5 -10 7 -19 7 -28c0 -40 -24 -77 -97 -174c11 3 22 4 31 4c19 0 56 -9 114 -28c71 -25 114 -37 127 -37c32 0 62 31 88 91z" />
    <glyph glyph-name="currency" unicode="&#xa4;" horiz-adv-x="500" 
d="M486 187l-28 -27l-70 69c-44 -33 -88 -50 -132 -50c-55 0 -117 22 -144 50l-71 -69l-28 27l70 70c-33 38 -49 84 -49 138c0 51 16 97 49 138l-70 69l28 28l71 -69c38 33 85 49 139 49c53 0 98 -16 137 -49l70 69l28 -28l-70 -69c33 -43 50 -89 50 -137
c0 -50 -17 -96 -50 -139zM427 395c0 97 -80 176 -177 176c-99 0 -177 -78 -177 -177c0 -98 78 -176 177 -176c98 0 177 79 177 177z" />
    <glyph glyph-name="yen" unicode="&#xa5;" horiz-adv-x="583" 
d="M604 664c-36 -1 -75 -37 -117 -109l-128 -218h204v-35h-224v-71h224v-35h-224c0 -91 18 -108 74 -110v-23h-239v23c66 1 75 16 75 110h-196v35h196v71h-196v35h178l-105 211c-41 83 -72 116 -109 116v24h177v-24c-12 0 -18 -5 -18 -13c0 -3 0 -6 2 -9l153 -305
c79 124 119 214 119 271c0 41 -22 55 -80 56v24h234v-24z" />
    <glyph glyph-name="brokenbar" unicode="&#xa6;" horiz-adv-x="200" 
d="M119 395h-40v362h40v-362zM119 -153h-40v362h40v-362z" />
    <glyph glyph-name="section" unicode="&#xa7;" horiz-adv-x="417" 
d="M373 304c0 -67 -38 -118 -114 -154c88 -60 112 -93 112 -148c0 -90 -89 -160 -203 -160c-37 0 -76 10 -116 28v133h36c1 -75 40 -130 108 -130c62 0 112 47 112 105c0 48 -25 73 -119 130c-107 64 -143 107 -143 172c0 70 42 122 125 155c-86 55 -112 89 -112 145
c0 90 70 148 179 148c36 0 73 -7 109 -21v-124h-34c-11 74 -51 119 -109 119c-51 0 -90 -37 -90 -87c0 -44 24 -70 109 -124c116 -74 150 -115 150 -187zM322 275c0 50 -30 84 -121 137c-66 -16 -98 -51 -98 -105c0 -46 36 -83 131 -140c59 29 88 65 88 108z" />
    <glyph glyph-name="dieresis" unicode="&#xa8;" horiz-adv-x="333" 
d="M306 659c0 -28 -22 -49 -50 -49c-27 0 -49 21 -49 49s22 49 48 49c29 0 51 -21 51 -49zM128 660c0 -28 -22 -50 -49 -50c-28 0 -49 22 -49 50c0 26 22 48 48 48c28 0 50 -21 50 -48z" />
    <glyph glyph-name="copyright" unicode="&#xa9;" horiz-adv-x="765" 
d="M728 356c0 -193 -152 -345 -346 -345s-345 151 -345 345c0 193 152 346 345 346s346 -153 346 -346zM702 355c0 177 -143 320 -320 320c-178 0 -319 -141 -319 -320c0 -178 141 -319 319 -319c179 0 320 142 320 319zM557 250c-42 -71 -99 -106 -171 -106
c-121 0 -208 90 -208 216s91 223 210 223c26 0 54 -6 84 -18c12 -5 22 -7 30 -7c13 0 20 9 20 26h15l9 -143h-14c-23 80 -69 121 -139 121c-90 0 -149 -82 -149 -198c0 -162 100 -191 157 -191s105 28 145 84z" />
    <glyph glyph-name="ordfeminine" unicode="&#xaa;" horiz-adv-x="313" 
d="M307 438c-33 -33 -60 -49 -80 -49c-19 0 -28 11 -28 33v46c-50 -52 -90 -78 -120 -78c-34 0 -60 28 -60 65c0 45 60 95 180 151v34c0 31 -13 46 -38 46c-48 0 -84 -46 -89 -108h-22v76c49 33 96 50 140 50c39 0 58 -16 58 -46v-212c0 -12 3 -18 11 -18c11 0 27 9 48 28
v-18zM202 578c-89 -19 -134 -63 -134 -102c0 -30 15 -44 44 -44c53 0 88 56 90 146z" />
    <glyph glyph-name="guillemotleft" unicode="&#xab;" horiz-adv-x="417" 
d="M393 63h-46l-166 195l166 192h43l-111 -192zM243 63h-44l-165 195l166 192h43l-111 -192z" />
    <glyph glyph-name="logicalnot" unicode="&#xac;" horiz-adv-x="667" 
d="M597 239h-53v228h-475v53h528v-281z" />
    <glyph glyph-name="sfthyphen" unicode="&#xad;" horiz-adv-x="564" 
d="M540 452h-522v40h522v-40z" />
    <glyph glyph-name="registered" unicode="&#xae;" horiz-adv-x="765" 
d="M728 356c0 -193 -152 -345 -346 -345s-345 151 -345 345c0 193 152 346 345 346s346 -153 346 -346zM702 355c0 177 -143 320 -320 320c-178 0 -319 -141 -319 -320c0 -178 141 -319 319 -319c179 0 320 142 320 319zM581 148h-100l-142 198h-34v-111c0 -58 9 -68 62 -69
v-18h-179v18c52 0 60 9 60 68v257c0 53 -11 64 -60 64v16h125c135 0 189 -32 189 -110c0 -58 -41 -98 -108 -104l80 -109c48 -66 67 -81 107 -82v-18zM439 467c0 55 -31 82 -92 82c-15 0 -29 -2 -42 -8v-174c94 0 134 27 134 100z" />
    <glyph glyph-name="macron" unicode="&#xaf;" horiz-adv-x="333" 
d="M294 633h-254v53h254v-53z" />
    <glyph glyph-name="degree" unicode="&#xb0;" horiz-adv-x="375" 
d="M348 556c0 -82 -66 -149 -149 -149s-149 66 -149 149c0 84 66 149 149 149c84 0 149 -65 149 -149zM317 556c0 66 -52 118 -118 118s-117 -52 -117 -118s51 -118 117 -118s118 52 118 118z" />
    <glyph glyph-name="plusminus" unicode="&#xb1;" horiz-adv-x="462" 
d="M408 221h-157v-124h-41v124h-159v40h159v160h41v-160h157v-40zM408 22h-357v41h357v-41z" />
    <glyph glyph-name="twosuperior" unicode="&#xb2;" horiz-adv-x="354" 
d="M313 483l-24 -117h-16c0 9 -3 13 -9 13h-232v18c147 165 195 235 195 290c0 30 -14 45 -43 45c-43 0 -74 -36 -92 -108h-24v85c55 29 104 43 148 43c56 0 84 -24 84 -73c0 -37 -20 -66 -84 -125l-124 -115h153c27 0 44 15 50 44h18z" />
    <glyph glyph-name="threesuperior" unicode="&#xb3;" horiz-adv-x="354" 
d="M311 507c0 -75 -77 -137 -167 -137c-29 0 -60 5 -92 17v112h24c5 -62 44 -109 93 -109c45 0 74 31 74 80c0 63 -43 95 -130 98v18c63 10 106 51 106 100c0 29 -14 44 -42 44c-45 0 -82 -48 -84 -108h-24v86c57 29 105 44 141 44c50 0 75 -20 75 -59
c0 -47 -38 -76 -130 -111c119 0 156 -18 156 -75z" />
    <glyph glyph-name="acute" unicode="&#xb4;" horiz-adv-x="333" 
d="M252 708c0 -9 -6 -19 -17 -32l-83 -92l-20 15l62 116c8 14 17 21 28 21c16 0 30 -13 30 -28z" />
    <glyph glyph-name="micro" unicode="&#xb5;" horiz-adv-x="510" 
d="M502 161c-4 -71 -39 -114 -94 -114c-46 0 -72 32 -78 96c-57 -63 -110 -94 -158 -94c-40 0 -70 20 -89 60c0 -103 2 -119 13 -159c7 -26 11 -45 11 -56c0 -27 -16 -47 -39 -47c-22 0 -40 20 -40 46c30 156 31 159 31 346v271h66v-298c0 -73 27 -109 81 -109
c33 0 74 23 124 69v338h64v-310c0 -77 10 -105 41 -105c23 0 38 22 46 66h21z" />
    <glyph glyph-name="paragraph" unicode="&#xb6;" horiz-adv-x="438" 
d="M439 670c-60 -3 -66 -15 -66 -86v-744h-28v821h-92v-821h-28v493c-152 0 -228 54 -228 170c0 80 50 153 123 172c33 8 77 13 133 13h186v-18z" />
    <glyph glyph-name="periodcentered" unicode="&#xb7;" horiz-adv-x="198" 
d="M159 375c0 -33 -26 -59 -59 -59s-58 26 -58 59s25 59 57 59c34 0 60 -26 60 -59z" />
    <glyph glyph-name="cedilla" unicode="&#xb8;" horiz-adv-x="333" 
d="M265 -44c0 -40 -38 -70 -89 -70c-18 0 -41 4 -70 12v27c26 -9 47 -14 62 -14c28 0 42 12 42 35c0 26 -16 38 -48 38h-26v90h26v-66c76 0 103 -12 103 -52z" />
    <glyph glyph-name="onesuperior" unicode="&#xb9;" horiz-adv-x="354" 
d="M269 374h-170v18c41 0 53 7 53 33v228c0 25 -9 38 -27 38c-10 0 -24 -3 -43 -10v17l151 54v-15c-11 -2 -16 -10 -16 -25v-287c0 -22 11 -33 34 -33h18v-18z" />
    <glyph glyph-name="ordmasculine" unicode="&#xba;" horiz-adv-x="323" 
d="M312 561c0 -94 -75 -172 -163 -172c-81 0 -133 54 -133 139c0 93 72 174 160 174c84 0 136 -54 136 -141zM268 527c0 78 -53 150 -118 150c-55 0 -91 -43 -91 -109c0 -80 55 -151 121 -151c58 0 88 51 88 110z" />
    <glyph glyph-name="guillemotright" unicode="&#xbb;" horiz-adv-x="417" 
d="M383 258l-165 -195h-44l111 195l-111 192h43zM236 258l-166 -195h-46l114 195l-111 192h43z" />
    <glyph glyph-name="onequarter" unicode="&#xbc;" horiz-adv-x="854" 
d="M813 161h-56v-51c0 -29 10 -37 44 -37v-17h-162v17c38 0 53 6 53 37v51h-166v17l112 130c25 32 56 73 94 125h25v-239h56v-33zM672 753l-452 -706h-43l453 706h42zM272 374h-169v18c41 0 52 7 52 33v228c0 25 -9 38 -26 38c-11 0 -25 -3 -44 -10v17l151 55v-16
c-10 -2 -16 -10 -16 -25v-287c0 -22 12 -33 34 -33h18v-18zM692 194v135c-35 -32 -77 -77 -125 -135h125z" />
    <glyph glyph-name="onehalf" unicode="&#xbd;" horiz-adv-x="854" 
d="M812 163l-23 -117h-17c0 9 -3 14 -8 14h-233v17c149 166 196 235 196 289c0 31 -15 47 -44 47c-42 0 -73 -37 -92 -109h-24v88c55 27 105 41 149 41c56 0 84 -25 84 -75c0 -46 -10 -55 -209 -239h153c29 0 46 15 51 44h17zM672 753l-452 -707h-43l453 707h42zM272 374
h-169v18c41 0 52 7 52 34v227c0 25 -9 38 -26 38c-10 0 -25 -3 -44 -10v17l151 55v-16c-10 -2 -16 -10 -16 -25v-286c0 -23 12 -34 34 -34h18v-18z" />
    <glyph glyph-name="threequarters" unicode="&#xbe;" horiz-adv-x="854" 
d="M813 161h-56v-51c0 -29 10 -37 44 -37v-17h-159v17c38 0 50 8 50 37v51h-166v17l107 124c37 42 70 86 99 131h25v-239h56v-33zM684 753l-452 -706h-44l454 706h42zM314 507c0 -75 -77 -137 -167 -137c-29 0 -59 5 -91 17v112h24c5 -62 44 -109 93 -109c45 0 74 31 74 80
c0 63 -44 95 -131 98v18c63 10 107 51 107 100c0 29 -15 44 -43 44c-44 0 -82 -48 -84 -108h-24v86c58 29 105 44 142 44c50 0 75 -20 75 -59c0 -42 -44 -79 -131 -111c119 0 156 -18 156 -75zM692 194v135c-36 -32 -78 -77 -125 -135h125z" />
    <glyph glyph-name="questiondown" unicode="&#xbf;" horiz-adv-x="448" 
d="M294 433c0 -33 -25 -59 -58 -59s-58 26 -58 59c0 32 25 58 57 58c33 0 59 -26 59 -58zM382 -88c-89 -49 -171 -74 -247 -74c-87 0 -140 42 -140 110c0 54 22 90 102 167c87 82 113 129 113 212h49c-1 -97 -20 -150 -88 -238c-46 -61 -69 -107 -69 -139
c0 -51 34 -84 87 -84c87 0 156 84 161 194h32v-148z" />
    <glyph glyph-name="Agrave" unicode="&#xc0;" horiz-adv-x="604" 
d="M603 63h-175v23h11c6 0 6 3 6 27l-58 170h-214c-22 -63 -33 -110 -33 -141c0 -42 21 -56 83 -56v-23h-219v23c37 2 70 41 100 117l200 510h29l173 -499c30 -88 59 -126 97 -128v-23zM376 313l-89 260l-102 -260h191zM354 750l-18 -10l-67 76c-22 24 -33 40 -33 48
c0 20 10 30 30 30c11 0 22 -10 32 -31z" />
    <glyph glyph-name="multiply" unicode="&#xd7;" horiz-adv-x="462" 
d="M392 107l-29 -28l-135 134l-135 -134l-29 28l134 136l-134 135l30 28l134 -135l135 135l29 -28l-137 -135z" />
    <glyph glyph-name="agrave" unicode="&#xe0;" horiz-adv-x="469" 
d="M463 122c-50 -49 -90 -73 -121 -73c-28 0 -42 15 -42 47v72c-78 -79 -139 -119 -183 -119c-50 0 -89 43 -89 98c0 71 91 147 272 228v59c0 37 -23 62 -61 62c-65 0 -121 -69 -131 -163h-32v117c75 49 145 74 211 74c62 0 87 -26 87 -90v-305c0 -15 7 -22 20 -22
s36 15 69 45v-30zM305 336c-118 -25 -202 -90 -202 -156c0 -43 28 -67 67 -67c80 0 134 89 135 223zM291 593l-18 -10l-68 76c-21 24 -32 40 -32 47c0 20 10 30 29 30c12 0 23 -10 33 -30z" />
    <glyph glyph-name="acircumflex" unicode="&#xe2;" horiz-adv-x="469" 
d="M463 122c-50 -49 -90 -73 -121 -73c-28 0 -42 15 -42 47v72c-78 -79 -139 -119 -183 -119c-50 0 -89 43 -89 98c0 71 91 147 272 228v59c0 37 -23 62 -61 62c-65 0 -121 -69 -131 -163h-32v117c75 49 145 74 211 74c62 0 87 -26 87 -90v-305c0 -15 7 -22 20 -22
s36 15 69 45v-30zM305 336c-118 -25 -202 -90 -202 -156c0 -43 28 -67 67 -67c80 0 134 89 135 223zM368 603h-32l-105 61l-103 -61h-33l136 118z" />
    <glyph glyph-name="ccedilla" unicode="&#xe7;" horiz-adv-x="448" 
d="M413 181c-65 -81 -127 -124 -188 -131v-42h28c48 0 72 -18 72 -53c0 -40 -40 -70 -93 -70c-19 0 -40 5 -62 15v27c20 -10 39 -15 58 -15c31 0 47 12 47 36c0 29 -15 36 -74 36v66c-98 0 -176 93 -176 211c0 141 112 261 242 261c40 0 85 -10 133 -32v-126h-35
c-2 76 -55 131 -127 131c-83 0 -142 -81 -142 -191c0 -111 61 -191 147 -191c49 0 105 34 170 102v-34z" />
    <glyph glyph-name="egrave" unicode="&#xe8;" horiz-adv-x="438" 
d="M418 186c-73 -92 -143 -137 -212 -137c-101 0 -185 98 -185 213c0 140 103 261 223 261c92 0 156 -70 159 -176h-315v-28c0 -117 67 -202 159 -202c56 0 113 33 171 101v-32zM323 371c-8 75 -50 121 -109 121c-60 0 -111 -50 -121 -121h230zM276 593l-17 -10l-68 76
c-22 24 -32 40 -32 47c0 20 9 30 29 30c12 0 23 -10 33 -30z" />
    <glyph glyph-name="eacute" unicode="&#xe9;" horiz-adv-x="438" 
d="M418 186c-73 -92 -143 -137 -212 -137c-101 0 -185 98 -185 213c0 140 103 261 223 261c92 0 156 -70 159 -176h-315v-28c0 -117 67 -202 159 -202c56 0 113 33 171 101v-32zM323 371c-8 75 -50 121 -109 121c-60 0 -111 -50 -121 -121h230zM306 708c0 -9 -6 -19 -17 -32
l-83 -92l-20 15l62 116c8 14 17 21 28 21c15 0 30 -13 30 -28z" />
    <glyph glyph-name="ecircumflex" unicode="&#xea;" horiz-adv-x="438" 
d="M418 186c-73 -92 -143 -137 -212 -137c-101 0 -185 98 -185 213c0 140 103 261 223 261c92 0 156 -70 159 -176h-315v-28c0 -117 67 -202 159 -202c56 0 113 33 171 101v-32zM323 371c-8 75 -50 121 -109 121c-60 0 -111 -50 -121 -121h230zM364 603h-32l-104 61
l-103 -61h-34l137 118z" />
    <glyph glyph-name="edieresis" unicode="&#xeb;" horiz-adv-x="438" 
d="M418 186c-73 -92 -143 -137 -212 -137c-101 0 -185 98 -185 213c0 140 103 261 223 261c92 0 156 -70 159 -176h-315v-28c0 -117 67 -202 159 -202c56 0 113 33 171 101v-32zM323 371c-8 75 -50 121 -109 121c-60 0 -111 -50 -121 -121h230zM374 659
c0 -28 -22 -49 -49 -49c-28 0 -50 21 -50 49s22 49 49 49c28 0 50 -21 50 -49zM196 660c0 -28 -21 -50 -49 -50c-27 0 -49 22 -49 50c0 26 22 48 48 48c28 0 50 -21 50 -48z" />
    <glyph glyph-name="icircumflex" unicode="&#xee;" horiz-adv-x="271" 
d="M252 63h-223v23c54 2 75 23 75 77v267c0 20 -12 30 -36 30c-1 0 -32 -8 -39 -10v25l125 49h24v-361c0 -55 20 -75 74 -77v-23zM264 603h-32l-105 61l-103 -61h-33l136 118z" />
    <glyph glyph-name="idieresis" unicode="&#xef;" horiz-adv-x="271" 
d="M252 63h-223v23c54 2 75 23 75 77v267c0 20 -12 30 -36 30c-1 0 -32 -8 -39 -10v25l125 49h24v-361c0 -55 20 -75 74 -77v-23zM273 659c0 -28 -22 -49 -49 -49c-28 0 -50 21 -50 49s22 49 49 49c28 0 50 -21 50 -49zM95 660c0 -28 -21 -50 -49 -50s-49 22 -49 50
c0 26 22 48 48 48c28 0 50 -21 50 -48z" />
    <glyph glyph-name="ocircumflex" unicode="&#xf4;" horiz-adv-x="490" 
d="M468 311c0 -144 -111 -262 -247 -262c-122 0 -200 83 -200 212c0 143 110 262 244 262c124 0 203 -82 203 -212zM401 257c0 121 -84 228 -178 228c-85 0 -137 -64 -137 -166c0 -121 85 -226 185 -226c76 0 130 68 130 164zM383 603h-32l-104 61l-103 -61h-34l137 118z
" />
    <glyph glyph-name="divide" unicode="&#xf7;" horiz-adv-x="462" 
d="M268 377c0 -24 -18 -43 -40 -43c-23 0 -42 20 -42 43s18 40 42 40c22 0 40 -17 40 -40zM408 221h-357v40h357v-40zM268 105c0 -24 -18 -42 -40 -42c-24 0 -42 18 -42 42c0 23 18 41 42 41c22 0 40 -18 40 -41z" />
    <glyph glyph-name="ugrave" unicode="&#xf9;" 
d="M531 101l-135 -54h-23v162c-83 -112 -138 -160 -205 -160c-53 0 -80 38 -80 114v267c0 28 -15 43 -46 43c-6 0 -15 -1 -27 -3v23l168 29v-19c-14 -3 -21 -15 -21 -33v-303c0 -42 16 -63 48 -63c50 0 92 36 126 109c28 60 42 118 42 174c0 58 -17 87 -52 87
c-7 0 -16 -2 -28 -4v23l170 29v-19c-15 -2 -22 -13 -22 -33v-314c0 -31 12 -46 34 -46c13 0 30 5 51 15v-24zM306 593l-17 -10l-68 76c-22 24 -33 40 -33 47c0 20 10 30 30 30c11 0 22 -10 32 -30z" />
    <glyph glyph-name="ucircumflex" unicode="&#xfb;" 
d="M531 101l-135 -54h-23v162c-83 -112 -138 -160 -205 -160c-53 0 -80 38 -80 114v267c0 28 -15 43 -46 43c-6 0 -15 -1 -27 -3v23l168 29v-19c-14 -3 -21 -15 -21 -33v-303c0 -42 16 -63 48 -63c50 0 92 36 126 109c28 60 42 118 42 174c0 58 -17 87 -52 87
c-7 0 -16 -2 -28 -4v23l170 29v-19c-15 -2 -22 -13 -22 -33v-314c0 -31 12 -46 34 -46c13 0 30 5 51 15v-24zM396 603h-32l-105 61l-103 -61h-33l136 118z" />
    <glyph glyph-name="udieresis" unicode="&#xfc;" 
d="M531 101l-135 -54h-23v162c-83 -112 -138 -160 -205 -160c-53 0 -80 38 -80 114v267c0 28 -15 43 -46 43c-6 0 -15 -1 -27 -3v23l168 29v-19c-14 -3 -21 -15 -21 -33v-303c0 -42 16 -63 48 -63c50 0 92 36 126 109c28 60 42 118 42 174c0 58 -17 87 -52 87
c-7 0 -16 -2 -28 -4v23l170 29v-19c-15 -2 -22 -13 -22 -33v-314c0 -31 12 -46 34 -46c13 0 30 5 51 15v-24zM399 659c0 -28 -22 -49 -49 -49c-28 0 -50 21 -50 49s22 49 49 49c28 0 50 -21 50 -49zM221 660c0 -28 -21 -50 -49 -50s-49 22 -49 50c0 26 22 48 48 48
c28 0 50 -21 50 -48z" />
    <glyph glyph-name="ydieresis" unicode="&#xff;" horiz-adv-x="469" 
d="M477 487c-43 -3 -63 -26 -92 -101l-167 -434c-26 -67 -74 -104 -146 -110l-79 94l27 21c25 -32 54 -48 85 -48c54 0 68 20 119 151l-134 332c-29 73 -51 94 -91 95v23h158v-23c-12 -1 -18 -5 -18 -12c0 -3 1 -7 3 -12l121 -301l48 127c21 57 32 105 32 143
c0 36 -24 55 -70 55v23h204v-23zM376 659c0 -28 -22 -49 -49 -49c-28 0 -50 21 -50 49s22 49 49 49c28 0 50 -21 50 -49zM198 660c0 -28 -21 -50 -49 -50s-49 22 -49 50c0 26 22 48 48 48c28 0 50 -21 50 -48z" />
    <glyph glyph-name="OE" unicode="&#x152;" horiz-adv-x="865" 
d="M847 226l-37 -186h-25c2 16 -4 23 -21 23h-250c-150 -14 -156 -14 -167 -14c-178 0 -308 124 -308 294c0 196 151 354 364 354c3 0 77 -5 133 -9h228c19 0 28 7 28 23h24v-187h-36c0 111 -50 140 -204 140c-4 -24 -6 -56 -6 -98c0 -131 40 -161 185 -161v-34l-179 -4
v-281c158 0 212 29 234 140h37zM487 86v526c-41 33 -89 50 -144 50c-134 0 -223 -96 -223 -241c0 -190 138 -339 315 -339c21 0 38 1 52 4z" />
    <glyph glyph-name="oe" unicode="&#x153;" horiz-adv-x="823" 
d="M793 185c-78 -91 -149 -136 -214 -136s-118 36 -161 109c-54 -73 -119 -109 -196 -109c-118 0 -199 87 -199 213c0 145 110 262 248 262c78 0 135 -33 172 -101c50 68 107 101 171 101c95 0 157 -66 161 -175h-315v-24c0 -119 65 -208 162 -208c54 0 111 34 171 102v-34z
M695 373c-4 71 -49 121 -110 121c-57 0 -107 -52 -121 -121h231zM400 257c0 122 -81 228 -177 228c-82 0 -136 -65 -136 -164c0 -119 85 -227 182 -227c80 0 131 65 131 163z" />
    <glyph glyph-name="Scaron" unicode="&#x160;" horiz-adv-x="448" 
d="M421 245c0 -114 -122 -196 -231 -196c-42 0 -90 10 -143 31v175h35c0 -98 62 -173 145 -173c71 0 117 44 117 112c0 63 -34 94 -144 167c-93 62 -138 96 -138 165c0 96 98 176 215 176c29 0 68 -9 116 -25v-154h-36c-5 86 -55 145 -125 145c-56 0 -95 -37 -95 -90
c0 -55 37 -93 154 -171c99 -66 130 -98 130 -162zM395 879l-137 -118l-137 118h33l104 -65l104 65h33z" />
    <glyph glyph-name="scaron" unicode="&#x161;" horiz-adv-x="365" 
d="M339 200c0 -83 -83 -151 -178 -151c-35 0 -75 10 -121 29v135h33c5 -81 50 -133 115 -133c50 0 85 33 85 81s-12 57 -153 147c-47 33 -65 59 -65 94c0 70 68 122 160 122c29 0 61 -7 96 -20v-128h-36c0 70 -42 120 -98 120c-35 0 -58 -24 -58 -58c0 -41 7 -46 173 -153
c31 -26 47 -54 47 -85zM328 719l-137 -118l-137 118h33l104 -64l104 64h33z" />
    <glyph glyph-name="Ydieresis" unicode="&#x178;" horiz-adv-x="583" 
d="M604 664c-36 -1 -75 -37 -117 -109l-148 -252v-139c0 -50 25 -76 74 -78v-23h-239v23c57 1 75 19 75 78v139l-123 245c-41 83 -72 116 -109 116v24h177v-24c-12 0 -18 -5 -18 -13c0 -3 0 -6 2 -9l153 -305c79 124 119 214 119 271c0 41 -22 55 -80 56v24h234v-24z
M449 818c0 -28 -22 -49 -50 -49c-27 0 -49 21 -49 49c0 27 22 49 48 49c29 0 51 -21 51 -49zM271 818c0 -27 -22 -49 -49 -49c-28 0 -49 22 -49 49s22 49 48 49c28 0 50 -21 50 -49z" />
    <glyph glyph-name="florin" unicode="&#x192;" horiz-adv-x="531" 
d="M531 699l-79 -85l-16 14c3 8 5 15 5 21c0 23 -19 41 -42 41c-54 0 -108 -79 -108 -154c0 -41 30 -62 91 -62h47l-6 -23h-152l-88 -351c-28 -111 -60 -163 -149 -246h-34c85 74 120 140 137 255l52 342h-68l6 23c46 1 67 18 106 86c72 122 139 175 219 175
c34 0 61 -12 79 -36z" />
    <glyph glyph-name="circumflex" unicode="&#x2c6;" horiz-adv-x="333" 
d="M303 603h-32l-105 61l-103 -61h-33l136 118z" />
    <glyph glyph-name="kasra" horiz-adv-x="285" 
d="M285 -286c-182 -80 -185 -81 -202 -81h-49c150 69 180 81 201 81h50z" />
    <glyph glyph-name="extendedarabicindicdigitsix" horiz-adv-x="493" 
d="M439 498l-33 -98c-132 -37 -227 -150 -284 -337h-30c16 152 46 224 131 312c-103 11 -155 49 -155 115c0 64 94 190 177 190c47 0 78 -21 134 -92l-8 -23c-56 27 -82 34 -136 34c-58 0 -106 -26 -106 -59c0 -39 71 -73 149 -73c40 0 94 11 161 31z" />
    <glyph glyph-name="extendedarabicindicdigitseven" horiz-adv-x="474" 
d="M457 679c-19 -40 -19 -49 -19 -81c0 -42 -7 -82 -20 -122l-97 -294c-12 -38 -18 -62 -18 -72c0 -16 6 -31 17 -47h-92l-140 405c-21 60 -26 62 -73 62l78 149l172 -500l77 232c6 20 10 35 10 47c0 21 -6 38 -17 52l-32 39l22 62c16 45 43 68 80 68h52z" />
    <glyph glyph-name="endash" unicode="&#x2013;" horiz-adv-x="500" 
d="M506 302h-512v30h512v-30z" />
    <glyph glyph-name="quoteleft" unicode="&#x2018;" horiz-adv-x="240" 
d="M228 726c-60 -40 -112 -106 -112 -165c0 -18 5 -34 15 -48c13 15 28 23 44 23c33 0 50 -17 50 -49c0 -39 -35 -60 -74 -60c-53 0 -90 37 -90 90c0 86 69 183 167 235v-26z" />
    <glyph glyph-name="quoteright" unicode="&#x2019;" horiz-adv-x="240" 
d="M217 661c0 -86 -63 -175 -166 -235v27c74 53 112 108 112 165c0 20 -6 37 -17 49c-10 -15 -26 -23 -46 -23c-27 0 -48 20 -48 47c0 35 32 60 75 60c56 0 90 -34 90 -90z" />
    <glyph glyph-name="quotesinglbase" unicode="&#x201a;" horiz-adv-x="240" 
d="M224 80c0 -84 -64 -175 -166 -234v27c74 53 111 108 111 165c0 19 -5 36 -16 48c-10 -15 -26 -23 -46 -23c-27 0 -48 20 -48 47c0 36 32 61 75 61c55 0 90 -35 90 -91z" />
    <glyph glyph-name="quotedblleft" unicode="&#x201c;" horiz-adv-x="317" 
d="M279 560c-25 -12 -45 -38 -45 -60c27 -7 40 -25 40 -54c0 -31 -23 -54 -53 -54c-32 0 -55 27 -55 65c0 65 33 124 99 175c0 -55 1 -63 14 -72zM147 560c-25 -12 -45 -38 -45 -60c27 -7 40 -25 40 -54c0 -31 -23 -54 -53 -54c-32 0 -55 27 -55 65c0 65 33 124 99 175
c0 -55 1 -63 14 -72z" />
    <glyph glyph-name="quotedblright" unicode="&#x201d;" horiz-adv-x="317" 
d="M283 562c0 -65 -33 -124 -99 -175c0 55 0 63 -14 72c25 12 45 38 45 60c-26 7 -40 25 -40 54c0 32 24 54 53 54c33 0 55 -27 55 -65zM151 562c0 -65 -33 -124 -99 -175c0 55 0 63 -14 72c25 12 45 38 45 60c-26 7 -40 25 -40 54c0 32 24 54 53 54c33 0 55 -27 55 -65z
" />
    <glyph glyph-name="quotedblbase" unicode="&#x201e;" horiz-adv-x="458" 
d="M422 80c0 -86 -61 -173 -164 -235v27c73 52 110 108 110 168c0 16 -5 31 -15 46c-11 -15 -26 -23 -44 -23c-29 0 -50 20 -50 48c0 36 30 60 74 60c55 0 89 -35 89 -91zM202 82c0 -92 -55 -171 -164 -237v28c65 39 110 106 110 164c0 17 -5 34 -14 49
c-11 -15 -26 -23 -45 -23c-29 0 -49 20 -49 49c0 39 35 59 74 59c53 0 88 -36 88 -89z" />
    <glyph glyph-name="dagger" unicode="&#x2020;" horiz-adv-x="438" 
d="M395 412h-22c-2 21 -21 36 -58 46l-84 23c7 -53 22 -107 47 -163c-26 -102 -41 -261 -47 -478h-25c-6 204 -22 363 -47 478c24 53 39 108 47 163l-66 -18c-57 -15 -74 -27 -77 -51h-21v165h21c3 -23 27 -40 73 -51l70 -18l-17 94c-14 82 -25 103 -59 106v21h176v-21
c-33 0 -45 -24 -58 -101l-17 -99l60 15c52 13 79 31 82 54h22v-165z" />
    <glyph glyph-name="daggerdbl" unicode="&#x2021;" horiz-adv-x="438" 
d="M399 -10h-24c-2 16 -18 31 -49 44l-93 26l24 -123c12 -60 22 -73 53 -74v-22h-180v22c31 1 43 18 53 74l22 126l-96 -30c-27 -6 -42 -21 -44 -43h-24v169h24c4 -25 19 -36 70 -51l70 -22c-6 49 -22 116 -48 201c16 44 31 109 48 194l-83 -23c-39 -11 -59 -26 -60 -46h-21
v167h21c6 -26 12 -29 56 -47l87 -24l-27 138c-9 46 -19 59 -48 61v22h177v-22c-35 -1 -44 -22 -58 -96l-20 -103l52 13c70 19 89 29 91 58h27v-167h-27c-4 25 -17 33 -62 46l-77 23c15 -81 31 -146 48 -194c-21 -68 -37 -135 -48 -201l83 28c42 14 56 23 59 45h24v-169z" />
    <glyph glyph-name="bullet" unicode="&#x2022;" horiz-adv-x="281" 
d="M252 375c0 -62 -49 -112 -111 -112c-63 0 -112 50 -112 112c0 63 49 112 112 112s111 -49 111 -112z" />
    <glyph glyph-name="ellipsis" unicode="&#x2026;" horiz-adv-x="1000" 
d="M892 107c0 -32 -26 -58 -59 -58s-59 25 -59 58c0 32 27 58 58 58c34 0 60 -26 60 -58zM559 107c0 -32 -27 -58 -59 -58c-33 0 -59 25 -59 58c0 32 26 58 58 58c26 0 60 -18 60 -58zM226 107c0 -33 -26 -58 -59 -58s-59 25 -59 58c0 31 26 58 58 58c33 0 60 -26 60 -58z
" />
    <glyph glyph-name="perthousand" unicode="&#x2030;" horiz-adv-x="1010" 
d="M972 241c0 -104 -72 -188 -163 -188c-78 0 -133 60 -133 146c0 107 71 191 163 191c78 0 133 -61 133 -149zM642 241c0 -106 -72 -188 -163 -188c-77 0 -133 61 -133 146c0 106 72 191 163 191c78 0 133 -61 133 -149zM335 546c0 -101 -71 -187 -165 -187
c-77 0 -130 60 -130 147c0 103 73 189 162 189c79 0 133 -60 133 -149zM578 715l-433 -682h-42l433 682h42zM915 192c0 91 -45 166 -106 166c-49 0 -75 -42 -75 -102c0 -93 47 -169 103 -169c52 0 78 35 78 105zM585 192c0 91 -45 166 -106 166c-47 0 -75 -41 -75 -102
c0 -94 46 -169 103 -169c52 0 78 35 78 105zM277 501c0 89 -46 162 -104 162c-52 0 -76 -46 -76 -105c0 -94 47 -167 106 -167c49 0 74 36 74 110z" />
    <glyph glyph-name="guilsinglleft" unicode="&#x2039;" horiz-adv-x="250" 
d="M223 472l-111 -187l108 -185v-37l-187 222l190 223v-36z" />
    <glyph glyph-name="guilsinglright" unicode="&#x203a;" horiz-adv-x="250" 
d="M223 286l-192 -223v37l113 186l-108 186v38z" />
    <glyph glyph-name="trademark" unicode="&#x2122;" horiz-adv-x="906" 
d="M895 292h-168v16c48 0 57 11 57 69v251l-151 -336h-9l-157 330v-248c0 -55 2 -66 57 -66v-16h-140v16c52 0 56 10 56 69v225c0 53 -6 65 -56 69v17h116l144 -311l140 311h111v-17c-48 -2 -56 -11 -56 -63v-231c0 -54 6 -68 56 -69v-16zM350 595h-13c-5 53 -23 68 -77 68
h-45v-276c0 -64 6 -79 57 -79v-16h-174v16c51 0 57 15 57 79v276h-45c-52 0 -71 -16 -77 -68h-13v93h330v-93z" />
    <glyph glyph-name="vehmedial" horiz-adv-x="349" 
d="M383 63h-144l-105 -101c-8 40 -73 101 -108 101h-26v73c48 0 62 -3 101 -43c28 -29 44 -44 48 -44c13 0 19 5 19 14c0 7 -10 20 -30 40l-64 62c-19 17 -28 36 -28 54c0 14 9 29 27 48l171 171c-5 -15 -7 -28 -7 -39c0 -12 7 -31 21 -59l46 -91c14 -28 21 -49 21 -63
c0 -20 -5 -37 -14 -50h72v-73zM257 152c0 8 -3 19 -9 31l-41 78c-6 11 -6 12 -6 41c-23 -19 -34 -35 -34 -48c0 -9 3 -20 11 -35l36 -66c12 -22 13 -25 13 -44c20 18 30 32 30 43zM125 552c0 -8 -8 -25 -25 -52c-13 17 -29 30 -49 38c-15 6 -22 14 -22 24c0 7 19 27 57 58
c1 -12 8 -24 20 -36c13 -11 19 -22 19 -32zM189 459c0 -8 -8 -25 -25 -52c-12 17 -29 29 -49 38c-14 6 -21 13 -21 23c0 8 19 27 57 58c1 -12 8 -24 20 -35c12 -12 18 -22 18 -32zM77 459c0 -8 -9 -25 -26 -52c-12 17 -28 29 -49 38c-14 6 -21 13 -21 23c0 8 19 27 57 58
c1 -12 8 -24 20 -35c12 -12 19 -22 19 -32z" />
    <glyph glyph-name="alefwithfathatanisolated" horiz-adv-x="296" 
d="M286 76c-6 -9 -30 -13 -71 -13c-94 0 -125 23 -125 94v305c0 21 -18 64 -56 131c25 0 61 28 108 86v-468c0 -80 30 -102 144 -135zM195 819c-181 -81 -184 -82 -201 -82h-49c150 70 180 82 201 82h49zM214 765c-182 -81 -184 -82 -202 -82h-49c150 69 180 82 202 82h49z
" />
  </font>
</defs>
</svg>
